#TITLE:Shampoo Planet;
#SUBTITLE:Ergo Proxy;
#ARTIST:Xaleph;
#TITLETRANSLIT:;
#SUBTITLETRANSLIT:;
#ARTISTTRANSLIT:;
#CREDIT:;
#BANNER:;
#BACKGROUND:;
#LYRICSPATH:;
#CDTITLE:;
#MUSIC:Xaleph - ShampooPlanet (Ergo Proxy).mp3;
#OFFSET:-0.020;
#SAMPLESTART:100.000;
#SAMPLELENGTH:12.000;
#SELECTABLE:YES;
#BPMS:0.000=159.620;
#STOPS:;
#BGCHANGES:0.000=Ergo=1.000=0=0=1,
99999=-nosongbg-=1.000=0=0=0 // don't automatically add -songbackground-
;
// cache tags:
#FIRSTBEAT:0.000;
#LASTBEAT:372.000;
#SONGFILENAME:Songs/My Creations/Xaleph - ShampooPlanet (Ergo Proxy)/Xaleph - ShampooPlanet (Ergo Proxy).sm;
#HASMUSIC:1;
#HASBANNER:0;
#MUSICLENGTH:150.047;
// end cache tags

//---------------dance-single - Copied from----------------
#NOTES:
     dance-single:
     Copied from:
     Challenge:
     1:
     0.566,0.681,0.513,0.420,0.067,453.000,77.000,63.000,56.000,4.000:
0001
0001
0010
0000
0100
0100
1000
0000
,
1000
1000
0100
0000
0010
0010
0001
0000
,
0001
0001
0010
0000
0100
0100
1000
0000
,
0001
0001
1001
1000
0000
0001
1001
1000
,
0001
0001
1000
1000
1001
0000
1001
1000
,
0101
1010
0101
1010
,
1001
0010
0100
1000
,
0100
0010
0001
0010
,
0100
1000
0100
0010
,
0001
0000
1000
0100
0100
0010
0010
0001
,
1001
0100
0100
0010
0010
0001
0001
1000
,
1000
1000
0100
0100
1010
0000
0101
0101
,
0110
2000
3102
0013
,
1200
0000
0320
0031
,
2000
0200
3000
0320
0002
0030
0003
0000
,
2020
0000
3030
0202
0000
0303
2020
3030
,
0202
0000
0000
0000
0303
1010
1010
1010
,
2001
0000
0200
0000
0000
0000
3000
0301
,
1000
0200
0020
0000
0000
0300
0031
0000
,
2000
0000
0020
3000
0200
0030
0001
0300
,
2002
0000
0000
3003
0000
1020
0000
0030
,
0000
2002
0000
0000
3003
1001
1001
1001
,
0100
0010
0001
0010
0100
1001
1001
0010
,
0000
0000
0100
0100
0000
0010
0000
1001
,
0200
0001
0000
2001
0000
0300
3000
0110
,
0002
1000
0000
0000
0103
0001
0000
1001
,
0000
0200
0000
0020
0000
0000
0300
1000
,
0030
0002
0000
0200
0000
0003
0000
0301
,
0000
0202
0000
0000
0300
2013
0000
3001
,
0002
0200
0000
0000
0003
2300
0000
0001
,
3000
0110
0000
1001
0000
0110
0000
1010
,
0000
0110
0000
1001
0000
0101
0000
0110
,
0000
1000
0000
0001
0000
0100
0000
0001
,
0000
1000
0000
0010
0000
0001
0000
0100
,
0000
1000
0000
0001
0000
0010
0000
0100
,
0000
0010
0000
0001
0000
1000
0000
0100
,
0110
1000
0001
0010
0001
1000
0100
0001
,
0010
0010
0100
1010
0010
0001
0101
0100
,
1000
0001
0010
1100
0001
0010
0001
1000
,
0010
0010
1000
0010
0001
0100
1010
0101
,
0100
0100
1000
0010
0010
1010
0001
0100
,
0001
0011
1000
2100
0010
0100
0000
3000
,
0020
0100
0000
0100
0100
1000
0030
0001
,
0001
1000
1000
0100
0001
1000
0001
0010
,
0100
1001
0100
0010
0101
1000
0100
0001
,
1000
0100
0010
1000
0010
0001
0010
1000
,
0001
2200
0000
0000
0000
0000
3300
0011
,
2000
0000
0200
0000
3000
0010
0301
0010
,
2000
0010
0000
0001
0000
0100
0000
0010
,
0000
0001
0000
0100
0000
0010
0000
0001
,
0000
0100
0000
0010
0000
0001
0000
0010
,
3000
0210
0000
0001
0000
0002
0000
0000
,
0003
0010
0000
1000
0000
0002
0300
1000
,
0000
0100
0000
1000
0000
0010
0003
1001
,
0000
1001
0000
1001
0000
1001
0000
0110
,
0000
1001
0100
0100
0000
1010
0000
0001
,
0000
0100
0000
0100
0000
0010
0000
0001
,
0000
0000
0010
0000
0000
0100
0010
0000
,
0000
0000
0001
0100
0001
0000
1001
0000
,
10MM
M0M0
0M1M
MM01
,
10MM
M0M1
M01M
1M0M
,
M0M1
1MMM
0M10
MM1M
,
010M
MM1M
0M01
M1MM
,
1MMM
1M0M
M0M1
010M
,
10M0
0M01
1M0M
M0M1
,
010M
01M0
1M0M
M011
,
0001
0000
0000
0100
0010
0001
0001
0000
0000
0010
0100
1000
,
1000
0000
0000
0001
0010
0100
1000
0000
0000
0001
0010
0100
,
1000
0000
0000
0010
0010
0100
1000
0000
0000
0001
0010
0100
,
1000
0000
0000
0010
0010
0001
0001
0000
0000
0100
0100
1000
,
1000
0000
0000
0001
0001
0010
0100
0000
0000
0001
0100
0100
,
100M
0010
100M
0010
,
M010
010M
1000
1112
,
0100
1000
0100
0010
,
0100
1000
1000
0103
,
0020
0001
0100
1000
,
0100
0001
0001
0130
,
0200
1000
0010
0001
,
0010
0001
1000
0301
,
2000
0100
0010
0100
,
0001
0010
0001
3010
,
0210
0010
1300
1000
0002
0010
0013
1000
,
0200
0010
0301
0010
2000
0100
3010
0010
,
2002
0000
3003
0220
0000
0330
0000
1001
,
1000
0100
0000
1000
0000
0010
0000
1000
,
0000
0100
0000
1000
0000
0010
0000
1000
,
0000
0100
0000
1000
0000
0010
0000
1000
,
0000
0100
0000
1000
0000
0001
0000
0010
,
0000
0001
0000
0100
0000
0001
0000
1100
,
0000
0100
0000
0011
0000
0100
0000
1000
,
0000
0010
0000
0000
0000
0010
0000
1001
,
0000
0100
0000
0010
0000
1000
0000
0100
,
0000
0001
0000
0010
0000
0100
0000
0001
;

//---------------dance-single - Copied from----------------
#NOTES:
     dance-single:
     Copied from:
     Hard:
     1:
     0.429,0.619,0.407,0.333,0.000,339.000,61.000,50.000,34.000,2.000:
0001
0110
0100
1000
,
1000
1100
0010
0011
,
0001
0110
0100
1010
,
0001
0000
1001
0000
0000
0000
1000
1000
,
0001
0001
0000
1000
1000
0000
1000
1000
,
0001
1010
0001
1010
,
0001
0010
0000
1000
,
0000
0010
0001
0011
,
0000
1100
0000
0011
,
0001
1000
0100
0010
,
1001
0000
0100
0000
0010
0000
0001
1100
,
0000
1100
0000
0100
1010
0000
0101
0000
,
0110
1000
0101
0010
,
0200
0000
0320
0030
,
2200
0000
0000
3300
0022
0000
0033
0000
,
2020
3030
1010
1010
,
0202
0000
0000
0000
0303
1000
1000
1000
,
2001
0000
0200
0000
0000
0000
3000
0300
,
0000
0200
0020
0000
0000
0300
0030
0000
,
2000
0000
0020
3000
0200
0030
0000
0300
,
2002
0000
0003
0000
3000
0010
0001
0000
,
0000
2002
0000
0000
0000
3003
0000
1001
,
0000
1001
0000
0010
0001
0010
0000
1001
,
1001
1001
0000
0101
0101
0101
0010
0001
,
0200
0000
0000
0001
0000
0300
0000
0110
,
0000
1000
0000
0000
0000
0001
0000
1001
,
0000
0220
0000
0000
0000
0000
0000
0330
,
0000
0202
0000
0000
0000
0003
0000
0300
,
0000
0002
0000
0200
0000
2003
0000
0300
,
3000
0002
0000
0200
0000
0003
0000
1300
,
0000
0001
0010
1001
0000
0010
0000
1010
,
0000
0010
0000
1001
0000
0100
0000
0010
,
0000
1000
0000
0001
0000
0100
0000
0001
,
0000
1000
0000
0010
0000
0001
0000
0100
,
0000
0000
0000
0001
0000
0000
0000
0100
,
0000
0010
0000
0001
0000
1000
0000
0100
,
0000
1000
0001
0010
0001
1000
0100
0001
,
0000
0100
0000
0010
0001
0101
0000
1000
,
0000
0010
0100
0001
0000
0001
0000
0010
,
0010
1000
0000
0001
0000
1010
0000
0100
,
0000
1000
0000
0010
1000
0000
0100
0001
,
0001
2000
0000
0100
0000
0100
0000
3000
,
0000
0020
0000
0100
0000
1000
0030
0001
,
0000
1000
0100
0001
0000
0001
0010
0100
,
0000
0100
0010
0101
0000
0100
0001
1000
,
0001
0010
0000
0010
0001
0010
0000
2000
,
0200
0000
0000
3300
,
0000
2200
0000
0000
0000
0000
3300
0000
,
0000
2010
0000
0000
0000
0100
0000
0000
,
0000
0001
0000
0100
0000
0000
0000
0001
,
0000
0100
0000
0000
0000
0001
0000
3000
,
0000
0000
0000
0200
0000
0002
0000
0000
,
0000
0000
0000
0003
0000
0300
0000
0002
,
0000
0100
0000
1000
0000
0000
0000
1003
,
0000
0000
0000
1001
0000
1001
0000
0110
,
0000
1001
0010
0010
0000
0100
0000
0001
,
0000
0100
0000
0010
0000
1000
0000
0001
,
0000
0001
0000
0010
0000
0000
0100
0010
,
0001
0010
0000
0000
0000
0001
1001
0000
,
00M0
00M0
0M10
M001
,
100M
00M1
M01M
1M00
,
M0M1
1MM0
0M10
M01M
,
0100
0M1M
0M01
M10M
,
10MM
1M00
00M1
010M
,
10M0
0M01
1M00
00M1
,
010M
01M0
100M
M010
,
0001
0000
0100
0001
0001
0000
0010
0100
,
1000
0000
0001
0010
1000
0000
0001
0010
,
1000
0000
0010
0010
1000
0000
0001
0100
,
1000
0000
0010
1000
0001
0000
0100
0010
,
1000
0000
0001
0010
0100
0000
0001
1000
,
1001
0010
1001
0010
,
1010
0101
1000
0112
,
0100
0000
0100
0010
,
0100
1000
0000
0103
,
0020
0000
0100
1000
,
0100
0000
0000
0030
,
0200
0000
0010
0001
,
0010
0001
0000
0300
,
2000
0100
0010
0100
,
0000
0010
0000
3010
,
0210
1300
0002
0013
,
0200
0000
0301
0000
0000
0100
0010
0010
,
2002
0000
3003
0000
0010
0000
1001
0100
,
0000
1000
0000
1000
0100
0010
0000
1000
,
0100
0100
0000
0000
0000
0010
0001
1000
,
0000
0000
0000
1000
0100
0010
0000
1000
,
0000
0100
0000
1001
0000
0001
0000
0000
,
0000
0001
0000
0100
0000
0001
0000
0100
,
0000
0000
0000
0001
0000
0100
0000
0000
,
0000
0010
0000
0000
0000
0010
0000
0000
,
0000
0100
0000
0000
0000
1000
0000
0000
,
0000
0001
0000
0000
0000
0000
0100
0001
;

//---------------dance-single - Copied from Copied f----------------
#NOTES:
     dance-single:
     Copied from Copied f:
     Medium:
     1:
     0.302,0.402,0.153,0.193,0.000,265.000,23.000,29.000,9.000,0.000:
0001
0010
0100
1000
,
1000
1000
0010
0001
,
0001
0010
0100
1000
,
0001
1001
0000
1000
,
0001
0001
1000
1000
,
0001
0010
0001
0010
,
0001
0010
0001
1000
,
0000
0010
0001
0010
,
0000
1100
0000
0011
,
0000
1000
0001
0010
,
1001
0100
1000
1100
,
1100
1100
1000
0100
,
0010
1000
0100
0010
,
0200
0000
0000
0000
,
0000
0000
0000
0300
0020
0000
0000
0000
,
0000
0030
0010
0010
,
0200
0000
0300
1000
,
2002
0000
0000
3003
,
0020
0000
0000
2030
,
0000
0000
0020
3000
0000
0030
0200
0000
,
0000
0000
0000
0020
0000
0000
0300
0002
,
0000
0000
0030
0000
0000
0003
0000
1001
,
0000
0010
0001
0010
0000
1001
0000
0000
,
0000
0100
0001
0100
0000
0010
0000
0201
,
0000
0000
0000
0300
,
0000
1001
0000
0000
0000
0101
0000
0000
,
0000
0220
0000
0000
0000
0000
0000
0000
,
0030
0002
0000
0000
0000
0000
0000
0300
,
0000
0200
0000
0000
0003
0000
0000
0002
,
0000
0000
0000
0000
0000
0300
0000
0000
,
0003
0010
0000
1000
0000
0010
0000
1000
,
0000
0010
0000
1000
0000
0100
0000
0010
,
0000
0000
0000
0001
0000
0000
0000
0001
,
0000
1000
0000
0000
0000
0001
0000
0100
,
0000
1000
0000
0001
0000
0000
0000
0100
,
0000
0010
0000
0001
0000
0000
0000
0100
,
0000
1000
0000
0010
0000
1000
0000
0001
,
0100
0100
0000
0010
0000
0001
0001
1100
,
0000
0010
0000
0001
0000
0001
0000
0010
,
0010
1000
0000
0001
0000
0010
0000
0100
,
0000
1000
0000
0010
0000
0000
0000
0001
,
0000
2000
0000
0000
0000
0000
0000
3020
,
0000
0000
0000
0000
0000
0000
0030
0001
,
0000
1000
0000
0001
0000
0000
0100
0010
,
0000
0000
0100
0010
0000
0000
0000
1010
,
0001
0000
0000
0010
0001
0010
0000
0000
,
0000
2200
0000
0000
0000
0000
3300
0000
,
0000
0200
0000
0000
0000
0000
0300
0000
,
0000
2010
0000
0000
0000
0010
0000
0000
,
0000
0010
0000
0000
0000
0000
0000
0010
,
0000
0010
0000
0000
0000
0010
3000
0000
,
0000
0200
0000
0000
0000
0001
0000
1000
,
0000
0001
0300
0000
0000
0002
0000
1000
,
0000
0000
0000
1000
0000
0000
0003
1000
,
0000
0000
0000
1000
0000
1000
0000
0100
,
0000
1000
0000
0010
0000
0100
0000
0000
,
0000
0000
0000
0010
0000
1000
0100
0001
,
0000
0000
0000
0010
0000
0000
0000
0010
,
0000
0000
0010
0100
0000
0001
0000
1000
,
0000
0000
0000
0010
0000
0001
0000
1000
,
0000
0001
001M
1000
,
M001
10M0
0010
001M
,
0100
0M10
0001
010M
,
100M
1000
0001
0100
,
1000
0001
1000
00M1
,
0100
0001
1000
M010
,
0001
0100
1000
0001
,
1000
0001
1000
0001
,
1000
0010
1000
0001
,
1000
0010
1000
0000
,
1000
0001
0100
0001
,
1000
0010
0001
0010
,
1001
0001
1000
0002
,
0100
0000
0100
0000
,
0100
0000
0100
0003
,
0020
0000
0000
0100
,
0100
0100
0000
0030
,
0200
0000
0010
0010
,
0010
0010
0000
0300
,
2000
0000
0010
0010
,
0010
0010
0000
3000
,
0010
1000
0001
0010
,
0100
0001
0000
0010
,
1001
1001
0010
1001
,
1001
0000
0000
1000
0000
0000
0000
0001
,
0000
0000
0000
0010
0000
0000
0000
1000
,
0000
0000
0000
1000
0000
0000
0000
1000
,
0000
0000
0000
1000
0000
0000
0000
0001
,
0000
0000
0000
0100
0000
0000
0000
0100
,
0000
0000
0000
0001
0000
0000
0000
1000
,
0000
0000
0000
0010
0000
0000
0000
1000
,
0000
0000
0000
0010
0000
0000
0000
1000
,
0000
0000
0000
0010
0000
0010
0000
0001
;

//---------------dance-single - Copied from Copied f----------------
#NOTES:
     dance-single:
     Copied from Copied f:
     Easy:
     1:
     0.232,0.278,0.020,0.107,0.000,225.000,3.000,16.000,0.000,0.000:  // measure 1
0001
0000
0100
0100
,  // measure 2
0000
0000
0010
0010
,  // measure 3
0000
0001
0100
1000
,  // measure 4
0000
1000
0000
0001
,  // measure 5
0000
0001
0000
1000
,  // measure 6
0000
0001
0001
0001
,  // measure 7
0001
0001
0001
1000
,  // measure 8
0001
0010
0001
0010
,  // measure 9
0001
0010
0001
0001
,  // measure 10
0100
1000
0001
0010
,  // measure 11
0001
0100
0000
0100
,  // measure 12
1000
0100
0000
0100
,  // measure 13
0010
0001
0000
0010
,  // measure 14
0200
0000
0000
0000
,  // measure 15
0000
0000
0000
0000
,  // measure 16
0000
0300
0010
0010
,  // measure 17
0010
0010
0010
1000
,  // measure 18
0002
0000
0000
0003
,  // measure 19
0020
0000
0000
0030
,  // measure 20
2000
0000
0000
0000
,  // measure 21
3000
0000
0100
0000
0100
0000
0000
0010
,  // measure 22
0000
0001
0000
0001
0000
0001
0000
0001
,  // measure 23
0000
0000
0000
0010
0000
0001
0000
0001
,  // measure 24
0000
0100
0000
0100
0000
0100
0000
0001
,  // measure 25
0000
0100
0000
0100
0000
0000
0000
0100
,  // measure 26
0000
0001
0000
0000
0000
0100
0000
0000
,  // measure 27
0000
0200
0000
0000
0000
0000
0000
0000
,  // measure 28
0000
0000
0300
0000
0000
0100
0000
0100
,  // measure 29
0000
0001
0000
0200
0000
0000
0000
0000
,  // measure 30
0300
0000
0000
0100
0000
0001
0000
1000
,  // measure 31
0000
0001
0000
1000
0000
0001
0000
1000
,  // measure 32
0000
0001
0000
1000
0000
0001
0000
0110
,  // measure 33
0000
0000
0000
0001
0000
0000
0000
0001
,  // measure 34
0000
0000
0000
0001
0000
0000
0000
0101
,  // measure 35
0000
0000
0000
0001
0000
0000
0000
0001
,  // measure 36
0000
0010
0000
0001
0000
0000
0000
0001
,  // measure 37
0000
1000
0000
0010
0000
1000
0000
0001
,  // measure 38
0000
0100
0000
0010
0000
0001
0000
0000
,  // measure 39
0000
0010
0000
0001
0000
0010
0000
0000
,  // measure 40
0000
1000
0000
0001
0000
0010
0000
0000
,  // measure 41
0000
1000
0000
0010
0000
0001
0000
2000
,  // measure 42
0000
0000
0000
0000
0000
0000
0000
3000
,  // measure 43
0000
0020
0000
0000
0000
0000
0000
0000
,  // measure 44
0000
0000
0030
0000
,  // measure 45
0000
0100
0000
0100
0000
0100
0000
0000
,  // measure 46
0000
0010
0000
0010
0000
0010
0000
2000
,  // measure 47
0000
0000
0000
0000
0000
0000
3000
0200
,  // measure 48
0000
0000
0000
0000
0000
0000
0300
2000
,  // measure 49
0000
0000
0000
0000
0000
0000
3000
2000
,  // measure 50
0000
0000
0000
0000
0000
0000
3000
2000
,  // measure 51
0000
0000
0000
0000
0000
0000
3000
0200
,  // measure 52
0000
0000
0000
0000
0000
0000
0300
0200
,  // measure 53
0000
0000
0000
0300
,  // measure 54
0000
1000
0000
0000
0000
1000
0000
0000
,  // measure 55
0000
1000
0000
0000
0000
1000
0000
0000
,  // measure 56
0000
0100
0000
1010
0000
0100
0000
0000
,  // measure 57
0000
0000
0000
0010
0000
1000
0000
0001
,  // measure 58
0000
0000
0000
0000
,  // measure 59
0000
0010
0000
0000
0000
0001
0000
1000
,  // measure 60
0000
0000
0010
0001
,  // measure 61
0000
0001
0010
1000
,  // measure 62
0001
1000
0010
0010
,  // measure 63
0100
0010
0001
0100
,  // measure 64
1000
1000
0001
0100
,  // measure 65
1000
0001
1000
0001
,  // measure 66
0100
0001
1000
0010
,  // measure 67
0001
0100
1000
0000
,  // measure 68
1000
0001
1000
0000
,  // measure 69
1000
0001
1000
0000
,  // measure 70
1000
0000
0001
0000
,  // measure 71
1000
0001
0100
0001
,  // measure 72
0100
0001
0010
0010
,  // measure 73
0001
0000
1000
0000
,  // measure 74
0100
0000
0100
0000
,  // measure 75
0100
0000
0100
0000
,  // measure 76
0010
0010
0010
0100
,  // measure 77
0100
0100
0010
0010
,  // measure 78
0100
0100
0010
0010
,  // measure 79
0010
0010
0000
0100
,  // measure 80
2000
0000
0000
0000
,  // measure 81
0000
0000
0000
3000
,  // measure 82
0010
0000
0001
0010
,  // measure 83
0100
0000
0000
0010
,  // measure 84
1000
1000
0010
1000
,  // measure 85
1000
0000
1000
0000
,  // measure 86
0001
0000
0010
0000
,  // measure 87
1000
0000
0000
0000
,  // measure 88
1000
0000
0000
0000
,  // measure 89
0001
0000
0000
0000
,  // measure 90
0100
0000
0000
0000
,  // measure 91
1000
0000
0000
0000
,  // measure 92
1000
0000
0000
0000
,  // measure 93
1000
0000
0000
0010
;
